Forbrydelsen - Season 3 - 720p x265 HEVC - DAN (ENG SUBS) [BRSHNKV]

Technical Details

Size 2.28 Gb
Seed 4
Leach 0
Hash 4A024F6697E128A2EE7CD78A01F5264DB842DAF5
Added 11 m ago

Vote for Torrent

 Like 0  Dislike 0

Torrent Health

100 %

Files

 or selectively click on the files tree

  • Forbrydelsen - Season 3 - 720p x265 HEVC - DAN (ENG SUBS) [BRSHNKV]
    • 10. Friday November 18 .mp4 (243.37 Mb)
    • 06. Monday November 14 .mp4 (239.46 Mb)
    • 08. Wednesday November 16 .mp4 (239.39 Mb)
    • 05. Sunday November 13 .mp4 (239.11 Mb)
    • 09. Thursday November 17 .mp4 (237.07 Mb)
    • 02. Thursday November 10 .mp4 (232.94 Mb)
    • 07. Tuesday November 15 .mp4 (231.51 Mb)
    • 04. Saturday November 12 .mp4 (231.16 Mb)
    • 03. Friday November 11 .mp4 (229.74 Mb)
    • 01. Wednesday November 9 .mp4 (215.27 Mb)
    • 03. Friday November 11.srt (62.16 Kb)
    • 01. Wednesday November 9 .srt (59.31 Kb)
    • 08. Wednesday November 16 .srt (59.21 Kb)
    • 04. Saturday November 12.srt (58.99 Kb)
    • 07. Tuesday November 15 .srt (57.95 Kb)
    • 10. Friday November 18 .srt (55.85 Kb)
    • 06. Monday November 14 .srt (55.60 Kb)
    • 09. Thursday November 17 .srt (51.47 Kb)
    • 02. Thursday November 10 .srt (51.16 Kb)
    • 05. Sunday November 13 .srt (51.09 Kb)

Trackers

udp://tracker.coppersurfer.tk:6969
udp://tracker.leechers-paradise.org:6969/announce
udp://tracker.opentrackr.org:1337/announce

Add Comment

Comments

There are no comments yet. Be first.

Please Share

Description

Tech:

Format : MPEG-4
Format profile : Base Media / Version 2
Codec ID : mp42
Overall bit rate mode : Variable
Overall bit rate : 520 Kbps
Encoded date : UTC 2016-02-12 14:33:25
Tagged date : UTC 2016-02-12 14:33:25
Writing application : HandBrake 0.10.2 2015061100

Video
ID : 1
Format : HEVC
Format/Info : High Efficiency Video Coding
Format profile : [email protected]@Main
Codec ID : hev1
Codec ID/Info : High Efficiency Video Coding
Bit rate : 351 Kbps
Width : 1 280 pixels
Height : 720 pixels
Display aspect ratio : 16:9
Frame rate mode : Constant
Frame rate : 25.000 fps
Color space : YUV
Chroma subsampling : 4:2:0
Bit depth : 8 bits
Bits/(Pixel*Frame) : 0.015
Stream size : 145 MiB (68%)
Writing library : x265 1.5:[Mac OS X][clang 6.1.0][64 bit]
Encoded date : UTC 2016-02-12 14:33:25
Tagged date : UTC 2016-02-12 14:33:25
Color range : Limited
Color primaries : BT.709
Transfer characteristics : BT.709
Matrix coefficients : BT.709

Audio
ID : 2
Format : AAC
Format/Info : Advanced Audio Codec
Format profile : LC
Codec ID : 40
Bit rate mode : Variable
Bit rate : 163 Kbps
Channel(s) : 2 channels
Channel positions : Front: L R
Sampling rate : 48.0 KHz
Compression mode : Lossy
Stream size : 67.4 MiB (31%)
Title : Stereo / Stereo
Language : Danish
Encoded date : UTC 2016-02-12 14:33:25
Tagged date : UTC 2016-02-12 14:33:25